Últimos assuntos
» Megadrive 3 tectoy liga e não aparece imagem
Qui Jul 21, 2016 4:45 pm por Odin

» consoles emuladores hoje em dia
Qui Jul 21, 2016 4:37 pm por Odin

» Como fazer uma fonte universal para video games
Ter Jul 12, 2016 12:13 pm por bru_rick

» hello apresentação
Seg Jun 27, 2016 1:54 pm por KleberJax

» [Tópico oficial] Assuntos políticos
Dom Jun 12, 2016 7:59 pm por KleberJax

» Hello World.
Dom Jun 12, 2016 7:22 pm por KleberJax

» Saturno não quer ler jogos e discos Me ajudem.....
Qui Jun 02, 2016 5:11 pm por Gudi021

» The Legend of Oasis BR
Seg Maio 30, 2016 5:30 pm por Master Uchiha

» Mega drive 1 Japonês sem som
Sex Maio 20, 2016 8:28 pm por dierry

» Sega Cd com leitor "batendo"
Qui Maio 19, 2016 9:15 pm por Odin

Parceiros
Coloque nosso banner em seu blog copiando o conteúdo da caixa de texto.
Forum SEGA Forever

Museu dos games antigos
Colares PSX Fan
B-Mark Database
Login

Esqueci minha senha


Como gravo jogos de Saturn???

Ver o tópico anterior Ver o tópico seguinte Ir em baixo

Como gravo jogos de Saturn???

Mensagem por Odin em Ter Nov 23, 2010 8:20 pm

Pessoal baixei alguns jogos de Saturn para jogar no meu Saturn que comprei recentemente mas me surgiu uma duvida, alguns vem com arquivos de musica, e não sei como grava-los... Não são como isos de PS1 que vem só a iso... Mad

Alguém poderia me explicar de uma maneira facil que eu entenda e me conseguir os programas para gravar? Achei uns tutoriais na net mas éram muito complicados...

Os jogos que baixei são:

Deep Fear
Golden Axe - The Duel
Mortal Kombat 2
Mortal Kombat Ultimate

_________________



Odin
Moderador
Moderador

Mensagens : 3785
Data de inscrição : 05/03/2010
Idade : 30
Localização : Palácio Valhalla - Asgard

Voltar ao Topo Ir em baixo

Re: Como gravo jogos de Saturn???

Mensagem por Edi (FZ2D) em Qua Nov 24, 2010 6:23 am

Primeiramente você fara o seguinte:

*Converta as faixas de Audio para WAV 16 bit 44100 MHz Stéreo;
*Confira o arquivo cuesheet, ele deve estar guiando as faixas com caminho WAV, por exemplo;

FILE "Track01.iso" BINARY
TRACK 01 MODE1/2048
INDEX 01 00:00:00
POSTGAP 00:02:00
FILE "Track02.wav" WAVE
TRACK 02 AUDIO
PREGAP 00:02:00
INDEX 01 00:00:00
FILE "Track03.wav" WAVE
TRACK 03 AUDIO
INDEX 01 00:00:00
FILE "Track04.wav" WAVE
TRACK 04 AUDIO
INDEX 01 00:00:00
FILE "Track05.wav" WAVE
TRACK 05 AUDIO
INDEX 01 00:00:00
FILE "Track06.wav" WAVE
TRACK 06 AUDIO
INDEX 01 00:00:00
FILE "Track07.wav" WAVE
TRACK 07 AUDIO
INDEX 01 00:00:00
FILE "Track08.wav" WAVE
TRACK 08 AUDIO
INDEX 01 00:00:00
FILE "Track09.wav" WAVE
TRACK 09 AUDIO
INDEX 01 00:00:00
FILE "Track10.wav" WAVE
TRACK 10 AUDIO
INDEX 01 00:00:00
FILE "Track11.wav" WAVE
TRACK 11 AUDIO
INDEX 01 00:00:00
FILE "Track12.wav" WAVE
TRACK 12 AUDIO
INDEX 01 00:00:00

Obs.: Para visaulizar o arquivo cue abra com bloco de notas.
Se o arquivo cue não existi você pode criar um com o programa Sega Cue Maker.

*Para gravar o disco, abra o arquivo cue com o programa de gravação (jamais o arquivo iso);
*Utilize a menor velocidade possível para se evitar erros.

Obs.: Você pode encontrar algumas ISOs de PS1 nesse formato. As ISOs de PC-Engine e Sega CD normalmente estarão nesse formato (CUE+ISO+MP3).


Espero ter ajudado :cool:

Edi (FZ2D)
Fanático
Fanático

Mensagens : 4256
Data de inscrição : 08/01/2010
Idade : 31
Localização : São Paulo/Zona Leste

http://www.edireviews.blogspot.com/

Voltar ao Topo Ir em baixo

Re: Como gravo jogos de Saturn???

Mensagem por error em Qua Nov 24, 2010 12:59 pm

Otimo tutorial Edi,valeu Very Happy

_________________

error
Administrador
Administrador

Mensagens : 1053
Data de inscrição : 08/07/2009
Idade : 23
Localização : Tokyo-to

http://segaforever.forum-livre.com

Voltar ao Topo Ir em baixo

Re: Como gravo jogos de Saturn???

Mensagem por Odin em Qua Nov 24, 2010 2:49 pm

Valeu Edi, essas gravações desses jogos são complidadas, mas desse jeito acho que entendo, vou tentar Wink

_________________



Odin
Moderador
Moderador

Mensagens : 3785
Data de inscrição : 05/03/2010
Idade : 30
Localização : Palácio Valhalla - Asgard

Voltar ao Topo Ir em baixo

Re: Como gravo jogos de Saturn???

Mensagem por Shownes em Seg Nov 29, 2010 11:15 pm

http://www.gigacom.xpg.com.br/32bits/32bits_gravar_jogos_saturn.html

aqui tem um tutorial do GIGA bem legal

Shownes
Ativo
Ativo

Mensagens : 151
Data de inscrição : 04/05/2010

Voltar ao Topo Ir em baixo

Re: Como gravo jogos de Saturn???

Mensagem por Gigacom em Qui Dez 02, 2010 6:09 am

Shownes escreveu:http://www.gigacom.xpg.com.br/32bits/32bits_gravar_jogos_saturn.html

aqui tem um tutorial do GIGA bem legal
Verdade, já ia falar desse tutorial haha!

Gigacom
Ativo
Ativo

Mensagens : 188
Data de inscrição : 24/01/2010

http://www.gigaoldgames.com.br

Voltar ao Topo Ir em baixo

Re: Como gravo jogos de Saturn???

Mensagem por Conteúdo patrocinado Hoje à(s) 10:22 am


Conteúdo patrocinado


Voltar ao Topo Ir em baixo

Ver o tópico anterior Ver o tópico seguinte Voltar ao Topo

- Tópicos similares

 
Permissão deste fórum:
Você não pode responder aos tópicos neste fórum